#TITLE:gentle stress;
#SUBTITLE:;
#ARTIST:DJ Swan;
#TITLETRANSLIT:;
#SUBTITLETRANSLIT:;
#ARTISTTRANSLIT:;
#CREDIT:;
#BANNER:gentle stress.png;
#BACKGROUND:gentle stress-bg.png;
#LYRICSPATH:;
#CDTITLE:RYgonTM 3rd Mix.PNG;
#MUSIC:gentle stress.mp3;
#OFFSET:-2.806;
#SAMPLESTART:72.540;
#SAMPLELENGTH:12.000;
#SELECTABLE:YES;
#DISPLAYBPM:175.000;
#BPMS:0.000=175.000;
#STOPS:;
#BGCHANGES:;
// cache tags:
#FIRSTBEAT:0.000;
#LASTBEAT:284.000;
#SONGFILENAME:Songs/nhac/gentle stress/gentle stress.sm;
#HASMUSIC:1;
#HASBANNER:1;
#MUSICLENGTH:103.288;
// end cache tags

//---------------dance-single - ----------------
#NOTES:
     dance-single:
     :
     Challenge:
     9:
     0.653,0.791,0.310,0.058,0.005,434.000,32.000,6.000,0.000,0.000:
1100
0000
0100
0000
,
0001
0100
1000
0100
0001
0010
0100
1000
,
0010
0000
0110
0000
,
0010
1000
0100
1000
0001
0100
0010
0100
,
0001
0000
1001
0000
,
0001
0010
0100
1000
0010
1000
0100
0010
,
0001
0000
1001
0000
,
0100
1000
0100
0010
0001
1000
0010
0100
,
0010
1000
0010
0000
0010
0001
0010
0000
,
0010
1000
0100
0001
0100
1000
0010
0001
,
0100
1000
0100
0000
0100
0001
0100
0000
,
0100
1000
0010
0001
0010
1000
0100
0001
,
1000
0100
1000
0000
0001
0100
0001
0000
,
1000
0100
0010
0001
0100
0010
1000
0000
,
0010
1000
0100
1000
0001
0010
0100
0010
,
1000
0100
0010
0001
0100
0010
1000
0001
,
1000
0100
1000
0100
0000
1000
1100
0000
,
0001
0100
0001
0100
0000
0001
0101
0000
,
1000
0010
1000
0010
0000
1000
1010
0000
,
0001
0010
0001
0010
0000
0001
0011
0000
,
1000
0100
0010
0100
0001
0100
0010
0000
,
0001
0100
0010
0100
1000
0100
0010
0000
,
1000
0100
1100
0000
0001
0100
0101
0000
,
1000
0100
1100
0100
0001
0100
0101
0100
,
0010
1000
0100
0010
0100
0001
0100
0010
,
0100
1000
0100
0010
0001
0100
0010
0100
,
0010
1000
0100
1000
0001
0100
0010
0100
,
0001
0010
0100
1000
0010
0100
0010
1000
,
0100
1000
0001
0100
0001
1000
0010
0100
,
0010
1000
0100
1000
0010
0100
0010
1000
,
0001
0100
0010
0100
0001
0010
0100
1000
,
0010
0000
0100
0000
0010
0000
1000
0000
0001
0000
1000
0000
0001
1000
0001
0000
,
0200
0000
0010
0000
,
0310
1000
1010
0010
,
1100
0100
0101
0100
1100
0100
0101
0100
,
1010
0100
1001
0001
1001
0000
0110
0000
,
0100
0001
0100
0000
0100
1000
0100
0000
,
0100
0001
0010
1000
0010
0001
0100
1000
,
0010
0001
0010
0000
0010
1000
0010
0000
,
0010
0001
0100
1000
0100
0001
0010
1000
,
0001
0010
0001
0000
1000
0010
1000
0000
,
0001
0010
0100
1000
0010
0100
0001
0000
,
0100
0001
0010
0001
1000
0100
0010
0100
,
0002
0000
0000
0000
,
0103
0001
0100
0000
0100
1000
0100
0000
,
0100
0001
0010
1000
0010
0001
0100
1000
,
0010
0001
0010
0000
0010
1000
0010
0000
,
0010
0001
0100
1000
0100
0001
0010
1000
,
0001
0010
0001
0000
1000
0010
1000
0000
,
0001
0010
0100
1000
0010
0100
0001
0000
,
0100
0001
0010
0001
1000
0100
0010
0100
,
2000
0000
0000
0000
,
3001
0010
0100
1000
0001
0010
0100
1000
,
0001
0010
0100
1000
0000
0001
0010
0000
,
1000
0100
0010
0001
1000
0100
0010
0001
,
1000
0100
0010
0001
0000
1000
0100
0000
,
0010
0000
1010
0000
0010
0011
0000
0000
,
0010
0000
0000
0100
0000
1000
1001
0000
,
1000
0100
0010
0001
0010
0100
1000
0001
,
0200
0010
0010
0010
,
1300
0100
0010
0001
1000
0100
0010
0001
,
1000
0100
0010
0001
0000
1000
0100
0000
,
0001
0010
0100
1000
0001
0010
0100
1000
,
0001
0010
0100
1000
0000
0001
0010
0000
,
0100
0000
0101
0000
0000
0100
1100
0000
,
0100
0000
0000
0010
0000
0001
1001
0000
,
0001
0010
0100
1000
0100
0010
0001
1000
,
0011
0010
1010
0010
0011
0010
1010
0000
,
2002
0000
0000
0000
,
0000
0000
0000
0000
,
0000
0000
0000
0000
,
3003
0000
0000
0000
;

//---------------dance-double - ----------------
#NOTES:
     dance-double:
     :
     Challenge:
     9:
     0.645,0.584,0.445,0.068,0.000,413.000,46.000,7.000,0.000,0.000:
00100000
00000000
00110000
00000000
,
00001000
00010000
00100000
00010000
,
00001000
00000000
00011000
00000000
,
00000100
00001000
00000010
00001000
,
00010000
00000000
00110000
00000000
,
00100000
01000000
00100000
10000000
,
01000000
11000000
01000000
01010000
,
00100000
00110000
00101000
00011000
,
00000100
00001000
00000100
00000000
00001000
00010000
00001000
00000000
,
00010000
00100000
01000000
00100000
10000000
00100000
01000000
00000000
,
00010000
00100000
00010000
00000000
00001000
00010000
00001000
00000000
,
00010000
00000100
00001000
00000100
00000010
00010000
00001000
00000000
,
00000010
00001000
00000100
00000000
00000010
00000001
00000100
00000000
,
00001000
00010000
00100000
01000000
00010000
00100000
01000000
00000000
,
10000000
01000000
00100000
00010000
00001000
00000100
00000010
00000001
,
00000001
00000010
00000100
00001000
00010000
00100000
01000000
10000000
,
10000000
01000000
11000000
00000000
00010000
01000000
01010000
00000000
,
10000000
01000000
11000000
00000000
00010000
01000000
01010000
00000000
,
00001000
00010000
00011000
00000000
00000100
00010000
00010100
00000000
,
00000010
00001000
00001001
00000000
00000010
00000001
00001001
00000000
,
00000100
00001000
00010000
00100000
01000000
00100000
01010000
00000000
,
01000000
00100000
00010000
00001000
00000100
00010000
00001100
00000000
,
00000010
00001000
00000100
00010000
00001000
00000010
00000101
00000000
,
00000010
00001000
00010000
00100000
00001000
00010000
00010100
00000000
,
00000001
00000010
00000011
00000000
00001000
00000010
00001010
00000000
,
00000001
00000010
00000011
00000000
00001000
00000010
00001010
00000000
,
00010000
00001000
00011000
00000000
00100000
00001000
00101000
00000000
,
01000000
00010000
10010000
00000000
01000000
10000000
10010000
00000000
,
00100000
00010000
00001000
00000100
00000010
00000100
00001010
00000000
,
00000010
00000100
00001000
00010000
00100000
00001000
00110000
00000000
,
01000000
00010000
00100000
00001000
00010000
01000000
10100000
00000000
,
01000000
00010000
00001000
00000100
00010000
00001000
00101000
00000000
,
00020000
00000000
00000000
00000000
00001000
00000000
00030000
00001000
,
00010000
00000100
00001000
00000010
00021000
00000000
00000000
00000000
,
00031000
00001000
00001000
00001000
00010000
00010000
00010000
00010000
,
00100000
00100000
00100000
00100000
01000000
00000000
10010000
00000000
,
01000000
10000000
00100000
01000000
00100000
00010000
01000000
00100000
,
00010000
00001000
00000100
00010000
00001000
00100000
00010000
00001000
,
00000100
00000010
00001000
00000100
00010000
00001000
00010000
00100000
,
00010000
00100000
01000000
00100000
10000000
01000000
10000000
00100000
,
00010000
00001000
00000100
00000010
00001000
00100000
01000000
10000000
,
01000000
00100000
00010000
00001000
00100000
00010000
00000100
00010000
,
00001000
00000010
00000100
00000001
00001000
00001000
00010000
00100000
,
00020000
00000000
00000000
00030000
,
00000010
00000001
00000100
00000010
00000100
00001000
00000010
00000100
,
00001000
00010000
00100000
00001000
00010000
00000100
00001000
00010000
,
00100000
01000000
00010000
00100000
00001000
00010000
00001000
00000100
,
00001000
00000100
00000010
00000100
00000001
00000010
00000001
00000100
,
00001000
00010000
00100000
01000000
00010000
00000100
00000010
00000001
,
00000010
00000100
00001000
00010000
00000100
00001000
00100000
00001000
,
00010000
01000000
00100000
10000000
00010000
00010000
00001000
00000100
,
00002000
00000000
00000000
00003000
,
00000001
00001000
00010000
10000000
00010000
00001000
00000001
00001000
,
00010000
10000000
00010000
00001000
00000000
00000001
00001000
00000000
,
00010000
10000000
00010000
00001000
00000001
00001000
00010000
10000000
,
00010000
00001000
00000001
00001000
00000000
00010000
10000000
00000000
,
01000000
00000000
01100000
00000000
00000000
00110000
00000000
00000000
,
00011000
00000000
00000000
00001100
00000000
00000000
00000110
00000000
,
00000001
00001000
00010000
10000000
00010000
00001000
00000001
00001000
,
00020000
00000000
00000000
00030000
,
10000000
00010000
00001000
00000001
00001000
00010000
10000000
00010000
,
00001000
00000001
00001000
00010000
00000000
10000000
00010000
00000000
,
00001000
00000001
00001000
00010000
10000000
00010000
00001000
00000001
,
00001000
00010000
10000000
00010000
00000000
00001000
00000001
00000000
,
00000010
00000000
00000110
00000000
00000000
00001100
00000000
00000000
,
00011000
00000000
00000000
00110000
00000000
00000000
01100000
00000000
,
10000000
10000000
10000000
10000000
01000000
01000000
01000000
01000000
,
00100000
00100000
00100000
00100000
00010000
00000000
00011000
00000000
,
00000220
00000000
00000000
00000000
,
00000000
00000000
00000000
00000000
,
00000000
00000000
00000000
00000000
,
00000330
00000000
00000000
00000000
;

//---------------dance-double - ----------------
#NOTES:
     dance-double:
     :
     Hard:
     8:
     0.581,0.584,0.426,0.194,0.000,356.000,44.000,20.000,0.000,0.000:
00000010
00000010
00000001
00000001
,
00000010
00001000
00000010
00000000
00000010
00000001
00000010
00000000
,
00000100
00000100
00001000
00001000
,
00000100
00000001
00000100
00000000
00000100
00001000
00000100
00000000
,
00000100
00000010
00010000
00010010
,
00000100
00000010
00001000
00000000
00000100
00010000
00001000
00000000
,
00000100
00000110
00000100
00010100
,
00010000
00001000
00000100
00000010
00001000
00000000
00001100
00000000
,
00001000
00000100
00001000
00000000
00001000
00100000
00001000
00000000
,
00010000
00001000
00000100
00001000
00000000
00010000
00011000
00000000
,
00100000
00001000
00100000
00000000
00100000
00010000
00100000
00000000
,
00000100
00100000
00001000
00100000
00000000
00000100
00000100
00000000
,
00100000
01000000
00100000
00000000
00100000
00001000
00100000
00000000
,
00010000
00100000
01000000
00100000
00000000
00010000
00110000
00000000
,
00001000
00100000
00001000
00000000
00001000
00010000
00001000
00000000
,
01000000
00001000
00100000
00001000
00000000
01000000
01001000
00000000
,
00100000
00000000
00110000
00000000
00010000
00100000
10000000
00000000
,
02000000
00000000
00010000
00000000
10000000
10000000
13000000
00000000
,
10000000
00000000
10100000
00000000
00100000
10000000
01000000
00000000
,
00020000
00000000
00100000
00000000
01000000
01000000
01030000
00000000
,
00100000
00000000
01100000
00000000
01000000
00100000
00001000
00000000
,
00020000
00000000
01000000
00000000
00001000
00001000
00031000
00000000
,
00001000
00000000
00101000
00000000
00100000
00001000
00010000
00000000
,
02000000
00000000
00100000
00000000
00010000
00010000
03010000
00000000
,
00000100
00000000
00001100
00000000
00000100
00001000
00100000
00000000
,
00002000
00010000
00100000
00003100
,
00001000
00000000
00101000
00000000
00001000
00100000
00010000
00000000
,
00200000
00000100
00010000
00301000
,
00010000
00000000
00011000
00000000
00010000
00001000
00000010
00000000
,
00002000
00000100
00000010
00013000
,
00001000
00000000
00001010
00000000
00001000
00000010
00000100
00000000
,
00000020
00010000
00000100
00001030
,
00000020
00000000
00000230
00000000
,
00000320
00000000
00000230
00000000
,
00000301
00000001
00000001
00000001
00001000
00001000
00001000
00001000
,
00000001
00001000
00000001
00001000
00000001
00000000
00000110
00000000
,
00000010
00000100
00001000
00010000
00000100
00000000
00001100
00000000
,
00000100
00010000
00000010
00001000
00010000
00000000
00010010
00000000
,
00010000
00001000
00000100
00000010
00001000
00000000
00001100
00000000
,
00001000
00000010
00010000
00000100
00000010
00000000
00010010
00000000
,
00100000
00010000
00001000
00000100
00010000
00000000
00011000
00000000
,
00010000
00000100
00100000
00001000
00000100
00000000
00000100
00000000
,
00000100
00001000
00010000
00100000
00001000
00000000
00011000
00000000
,
00200200
00000000
00000000
00000000
00000000
00300300
00000000
00000000
,
00100000
01000000
00001000
00010000
01000000
00000000
01001000
00000000
,
01000000
00010000
00100000
00001000
00010000
00000000
00110000
00000000
,
00010000
00001000
01000000
00100000
00001000
00000000
01001000
00000000
,
00001000
00100000
00010000
01000000
00100000
00000000
00110000
00000000
,
00100000
00010000
10000000
01000000
00010000
00000000
10010000
00000000
,
00010000
01000000
00100000
10000000
01000000
00000000
01100000
00000000
,
01000000
10000000
00010000
00100000
10000000
00000000
10010000
00000000
,
02200000
00000000
00000000
00000000
00000000
03300000
00000000
00000000
,
00001000
00010000
00100000
01000000
00001000
00010000
00100000
01000000
,
00001000
00010000
00100000
01000000
00000000
00000000
01001000
00000000
,
01000000
00100000
00010000
00001000
01000000
00100000
00010000
00001000
,
01000000
00100000
00010000
00001000
00000000
00000000
01001000
00000000
,
00001000
00000000
00010100
00000000
00000000
00001000
00000000
00000000
,
00110000
00000000
00000000
00001000
00000000
00000000
00010100
00000000
,
00000100
00010000
00001000
00100000
00000100
00010000
00001000
00100000
,
00200200
00000000
00000000
00300300
,
00000010
00000100
00010000
00000100
00000010
00000100
00010000
00000100
,
00000010
00001000
00010000
00001000
00000000
00000000
00010010
00000000
,
00010000
00000100
00000010
00000100
00010000
00000100
00000010
00000100
,
00010000
00001000
00000010
00001000
00000000
00000000
00010010
00000000
,
00000010
00000000
00000011
00000000
00000000
00000010
00000000
00000000
,
00001010
00000000
00000000
00000010
00000000
00000000
00000011
00000000
,
00000100
00000001
00000100
00000001
00000100
00001000
00000100
00001000
,
00000100
00000001
00000100
00001000
00000100
00000000
00001001
00000000
,
00002200
00000000
00000000
00000000
,
00000000
00000000
00000000
00000000
,
00000000
00000000
00000000
00000000
,
00003300
00000000
00000000
00000000
;

//---------------dance-single - Copied from Copied f----------------
#NOTES:
     dance-single:
     Copied from Copied f:
     Hard:
     8:
     0.584,0.584,0.445,0.194,0.000,356.000,46.000,20.000,0.000,0.000:
0100
0100
1000
1000
,
0100
0001
0100
0000
0100
1000
0100
0000
,
0010
0010
0001
0001
,
0010
1000
0010
0000
0010
0001
0010
0000
,
0100
1000
0001
1001
,
0100
1000
0010
0000
0100
0001
0010
0000
,
0100
1100
0100
0101
,
0001
0010
0100
1000
0010
0000
0110
0000
,
0100
1000
0100
0000
0100
0001
0100
0000
,
0010
0100
1000
0100
0000
0010
0110
0000
,
0001
0100
0001
0000
0001
0010
0001
0000
,
1000
0001
0100
0001
0000
1000
1001
0000
,
0010
0001
0010
0000
0010
1000
0010
0000
,
0100
0010
0001
0010
0000
0100
0110
0000
,
1000
0010
1000
0000
1000
0100
1000
0000
,
0001
1000
0010
1000
0000
0001
1001
0000
,
0100
0000
1100
0000
1000
0100
0001
0000
,
0020
0000
1000
0000
0001
0001
0031
0000
,
0001
0000
0101
0000
0100
0001
0010
0000
,
2000
0000
0100
0000
0010
0010
3010
0000
,
0010
0000
0011
0000
0001
0010
1000
0000
,
0200
0000
0001
0000
1000
1000
1300
0000
,
1000
0000
1010
0000
0010
1000
0100
0000
,
0002
0000
0010
0000
0100
0100
0103
0000
,
1000
0000
1100
0000
1000
0100
0001
0000
,
0200
0010
0001
1300
,
0100
0000
0101
0000
0100
0001
0010
0000
,
0002
1000
0010
0103
,
0001
0000
0011
0000
0001
0010
1000
0000
,
0020
0100
1000
0031
,
0010
0000
1010
0000
0010
1000
0100
0000
,
2000
0001
0100
3010
,
0200
0000
0320
0000
,
0230
0000
0320
0000
,
1030
1000
1000
1000
0001
0001
0001
0001
,
1000
0001
1000
0001
1000
0000
0110
0000
,
1000
0100
0010
0001
0100
0000
0110
0000
,
0100
0001
1000
0010
0001
0000
1001
0000
,
0001
0010
0100
1000
0010
0000
0110
0000
,
0010
1000
0001
0100
1000
0000
1001
0000
,
0001
0010
0100
1000
0010
0000
0110
0000
,
0010
1000
0001
0100
1000
0000
1001
0000
,
1000
0100
0010
0001
0100
0000
0110
0000
,
2002
0000
0000
0000
0000
3003
0000
0000
,
0010
0001
1000
0100
0001
0000
1001
0000
,
0001
0100
0010
1000
0100
0000
0110
0000
,
0100
1000
0001
0010
1000
0000
1001
0000
,
1000
0010
0100
0001
0010
0000
0110
0000
,
0100
1000
0001
0010
1000
0000
1001
0000
,
1000
0010
0100
0001
0010
0000
0110
0000
,
0010
0001
1000
0100
0001
0000
1001
0000
,
0220
0000
0000
0000
0000
0330
0000
0000
,
1000
0100
0010
0001
1000
0100
0010
0001
,
1000
0100
0010
0001
0000
0000
1001
0000
,
0001
0010
0100
1000
0001
0010
0100
1000
,
0001
0010
0100
1000
0000
0000
1001
0000
,
0100
0000
1010
0000
0000
0100
0000
0000
,
0011
0000
0000
0100
0000
0000
1010
0000
,
1000
0010
0100
0001
1000
0010
0100
0001
,
2002
0000
0000
3003
,
1000
0100
0001
0100
1000
0100
0001
0100
,
1000
0010
0001
0010
0000
0000
1001
0000
,
0001
0100
1000
0100
0001
0100
1000
0100
,
0001
0010
1000
0010
0000
0000
1001
0000
,
0100
0000
1100
0000
0000
0100
0000
0000
,
0101
0000
0000
0100
0000
0000
1100
0000
,
0010
1000
0010
1000
0010
0001
0010
0001
,
0010
1000
0010
0001
0010
0000
1001
0000
,
0220
0000
0000
0000
,
0000
0000
0000
0000
,
0000
0000
0000
0000
,
0330
0000
0000
0000
;

//---------------dance-single - ----------------
#NOTES:
     dance-single:
     :
     Medium:
     7:
     0.606,0.550,1.000,0.106,0.000,284.000,143.000,11.000,0.000,0.000:
0100
0110
0010
0110
,
0100
1100
1001
0101
,
0010
0110
0100
0110
,
0001
0110
1001
0110
,
1000
1100
0100
0101
,
0100
1010
1001
0011
,
0100
1010
0100
0011
,
1001
1100
1001
0101
,
1100
0101
0010
1001
,
0010
0000
1001
0000
0001
0100
1000
0000
,
0101
0011
1000
0110
,
1000
0000
0110
0000
0010
0001
0100
0000
,
0011
1010
0100
1001
,
0100
0000
1001
0000
1000
0010
0001
0000
,
1010
1100
0001
0110
,
0001
0000
0110
0000
0100
1000
0010
0000
,
1001
1100
1001
0101
,
0010
1100
1001
0101
,
0010
1100
1001
0101
,
0010
1000
0100
0010
0000
0100
0110
0000
,
0110
0101
0110
0011
,
1000
0101
0110
0011
,
1000
0101
0110
0011
,
1000
0100
0001
1000
0000
0001
1001
0000
,
1001
0011
1001
1010
,
0100
0011
1001
1010
,
0100
0011
1001
1010
,
0100
0001
0010
0100
0000
0010
0110
0000
,
0110
1010
0110
1100
,
0001
1010
0110
1100
,
0001
1010
0110
1100
,
0001
0010
1000
0001
0000
1000
1001
0000
,
2000
0000
3200
0000
,
0320
0000
0032
0000
,
1003
1100
0001
0101
,
1000
0110
1001
0101
,
1000
1100
1001
0101
,
0001
0101
1001
1100
,
0010
1100
0010
0101
,
0010
1010
1001
0011
,
0100
1010
1001
0011
,
0100
0011
1001
1010
,
0100
1010
0100
0011
,
2002
0000
0000
3003
,
0010
1100
1001
0101
,
0010
0101
1001
1100
,
0010
1100
0010
1001
,
0001
0011
1001
1100
,
0010
1100
0001
1001
,
0010
1100
1001
0101
,
1100
1100
0110
0011
,
2002
0000
0000
3003
,
1000
0000
0100
0010
0001
0000
0100
0010
,
1000
0000
0001
0100
0000
1000
0100
0000
,
0001
0000
0010
0100
1000
0000
0010
0100
,
0001
0000
1000
0100
0000
0001
0100
0000
,
1010
0000
1001
0000
0000
0011
0000
0000
,
1001
0000
0000
1100
0000
0000
1001
0000
,
0010
0000
0100
1000
0010
0000
0100
0001
,
2000
0000
0000
0000
,
3100
0000
0010
0001
0100
0000
0010
1000
,
0100
0000
0001
0010
0000
1000
0010
0000
,
0001
0000
0010
0100
1000
0000
0010
0100
,
0001
0000
1000
0100
0000
0001
0100
0000
,
0010
0000
1100
0000
0000
1001
0000
0000
,
0101
0000
0000
1001
0000
0000
1100
0000
,
0010
1010
1001
0011
,
1000
0100
0010
0001
1000
0000
0110
0000
,
2002
0000
0000
0000
,
0000
0000
0000
0000
,
0000
0000
0000
0000
,
3003
0000
0000
0000
;

//---------------dance-double - ----------------
#NOTES:
     dance-double:
     :
     Medium:
     7:
     0.589,0.550,1.000,0.106,0.000,283.000,132.000,11.000,0.000,0.000:
01000000
01100000
00100000
01100000
,
01000000
11000000
10010000
01010000
,
00100000
01100000
01000000
01100000
,
00010000
01100000
10010000
01100000
,
01000000
01100000
00100000
00101000
,
00100000
01010000
01001000
00011000
,
00100000
01010000
00100000
00011000
,
01001000
01100000
01001000
00101000
,
00110000
00010100
00001000
00100000
,
00001000
00000000
00100000
00000000
00000100
00010000
00100000
00000000
,
00010100
00001100
00100000
00011000
,
00100000
00000000
00011000
00000000
00001000
00000100
00010000
00000000
,
00000110
00010100
00001000
00010010
,
00001000
00000000
00010010
00000000
00010000
00000100
00000010
00000000
,
00010100
00011000
00000010
00001100
,
00000010
00000000
00001100
00000000
00001000
00010000
00000100
00000000
,
00001001
00001100
00001001
00000101
,
00000010
00001100
00001001
00000101
,
00000010
00001100
00001001
00000101
,
00000010
00001000
00000100
00000010
00000000
00000100
00000110
00000000
,
00001100
00001010
00001100
00000110
,
00010000
00001010
00001100
00000110
,
00010000
00001010
00001100
00000110
,
00010000
00001000
00000010
00010000
00000000
00000010
00010010
00000000
,
00100000
00001100
00100000
00101000
,
00010000
00001100
00100000
00101000
,
00010000
00001100
00100000
00101000
,
00010000
00000100
00001000
00010000
00000000
00001000
00011000
00000000
,
00110000
01010000
00110000
01100000
,
00001000
01010000
00110000
01100000
,
00001000
01010000
00110000
01100000
,
00001000
00010000
01000000
00001000
00000000
01000000
01001000
00000000
,
20000000
00000000
32000000
00000000
,
03200000
00000000
00320000
00000000
,
10030000
11000000
00010000
01010000
,
10000000
01100000
10010000
01010000
,
01000000
01100000
01001000
00101000
,
00001000
00101000
01001000
01100000
,
00010000
01100000
00010000
00101000
,
00010000
01010000
01001000
00011000
,
00010000
00101000
00100000
00001100
,
00010000
00001100
00100000
00101000
,
00010000
00101000
00010000
00001100
,
00200200
00000000
00000000
00300300
,
00000100
00011000
00010010
00001010
,
00000100
00001010
00010010
00011000
,
00000100
00011000
00000100
00010010
,
00000010
00000110
00010010
00011000
,
00000010
00001100
00000001
00001001
,
00000010
00001100
00001001
00000101
,
00001100
00001100
00000110
00000011
,
00002002
00000000
00000000
00003003
,
00010000
00000000
00001000
00000100
00000010
00000000
00001000
00000100
,
00010000
00000000
00000010
00001000
00000000
00010000
00001000
00000000
,
00000010
00000000
00000100
00001000
00010000
00000000
00000100
00001000
,
00000010
00000000
00010000
00001000
00000000
00000010
00001000
00000000
,
00101000
00000000
00100000
00000000
00000000
00001100
00000000
00000000
,
00100000
00000000
00000000
00110000
00000000
00000000
00100000
00000000
,
00001000
00000000
00010000
00100000
00001000
00000000
00010000
00000100
,
00200000
00000000
00000000
00000000
,
00300000
00000000
00010000
00001000
00100000
00000000
00010000
01000000
,
00100000
00000000
00001000
00010000
00000000
01000000
00010000
00000000
,
00001000
00000000
00010000
00100000
01000000
00000000
00010000
00100000
,
00001000
00000000
01000000
00100000
00000000
00001000
00100000
00000000
,
00100000
00000000
11000000
00000000
00000000
10010000
00000000
00000000
,
01010000
00000000
00000000
10010000
00000000
00000000
11000000
00000000
,
00100000
10100000
10010000
00110000
,
10000000
01000000
00100000
00010000
10000000
00000000
01100000
00000000
,
02002000
00000000
00000000
00000000
,
00000000
00000000
00000000
00000000
,
00000000
00000000
00000000
00000000
,
03003000
00000000
00000000
00000000
;

//---------------dance-single - ----------------
#NOTES:
     dance-single:
     :
     Easy:
     6:
     0.584,0.584,0.290,1.000,0.000,250.000,30.000,142.000,0.000,0.000:
0200
0000
2300
0000
,
3200
0000
0302
0000
,
0023
2030
3020
0032
,
0023
0230
2300
3002
,
0203
0000
2300
0000
,
3200
0000
0302
0000
,
0023
2030
3020
0032
,
0203
2300
3020
2030
,
3200
0320
2030
3002
,
0203
0001
1000
0301
,
0020
2030
3200
0302
,
2003
0010
0100
3010
,
0002
0023
2030
3020
,
0230
0001
1000
0310
,
2000
3002
0023
2030
,
3020
1000
0001
0100
,
1030
1100
1001
0101
,
0002
0023
0230
2300
,
3001
0101
1001
1100
,
2000
3020
0230
0302
,
1003
1100
1001
0101
,
0020
0230
2300
3002
,
0103
1100
0110
0011
,
0002
0023
0230
0320
,
0031
0011
1001
1010
,
2000
3200
0320
0032
,
1003
1010
1001
0011
,
0002
0203
0320
2030
,
3001
0011
1001
1010
,
0200
0320
0032
2003
,
3010
0011
0110
1100
,
2000
3200
0320
0230
,
2300
0000
3200
0000
,
0320
0000
0032
0000
,
0103
0100
0010
0010
,
0100
0000
0010
0100
0010
0000
0110
0000
,
2000
0100
0010
3100
,
0020
1000
0100
0031
,
0200
0010
0001
1300
,
0002
0010
1000
0103
,
0020
1000
0001
1030
,
0002
0010
1000
0103
,
2000
0001
0100
3010
,
2002
0000
0000
0000
0000
3003
0000
0000
,
0002
0010
0100
0013
,
0200
0001
0010
1300
,
0020
0100
1000
0031
,
2000
0100
0001
3010
,
0200
0001
1000
0301
,
2000
0100
0001
3010
,
0002
1000
0010
0103
,
2002
0000
0000
0000
0000
3003
0000
0000
,
2000
3200
0320
0032
,
2003
3200
0320
0031
,
0002
0023
0230
2300
,
3002
0023
0230
1300
,
0010
0000
0200
0000
0000
2300
0000
0000
,
3200
0000
0000
0302
0000
0000
0013
0000
,
0002
0023
0230
1300
,
2002
0000
0000
3003
,
2000
3020
0230
0302
,
2003
3020
0230
0301
,
0002
0203
0320
2030
,
3002
0203
0320
1030
,
0200
0000
0320
0000
0000
2030
0000
0000
,
3200
0000
0000
0320
0000
0000
0031
0000
,
1000
1000
0001
0001
,
1000
0000
0001
1000
0001
0000
1001
0000
,
0220
0000
0000
0000
,
0000
0000
0000
0000
,
0000
0000
0000
0000
,
0330
0000
0000
0000
;

//---------------dance-double - ----------------
#NOTES:
     dance-double:
     :
     Easy:
     6:
     0.580,0.584,0.271,1.000,0.000,249.000,28.000,142.000,0.000,0.000:
02000000
00000000
23000000
00000000
,
32000000
00000000
03020000
00000000
,
00230000
20300000
30200000
00320000
,
00230000
02300000
23000000
30020000
,
00230000
00000000
02300000
00000000
,
03200000
00000000
00302000
00000000
,
00023000
02030000
03020000
00032000
,
00203000
02300000
03020000
02030000
,
03020000
00032000
00203000
00300200
,
00020300
00000100
00100000
00030100
,
00002000
00203000
00320000
00030200
,
00200300
00001000
00010000
00301000
,
00000020
00000230
00020300
00030200
,
00002300
00000010
00010000
00003100
,
00020000
00030020
00000230
00020300
,
00030200
00010000
00000010
00001000
,
00001300
00001100
00001001
00000101
,
00000002
00000023
00000230
00002300
,
00003001
00000101
00001001
00001100
,
00002000
00003020
00000230
00000302
,
00010003
00011000
00010010
00001010
,
00000200
00002300
00023000
00030020
,
00001030
00011000
00001100
00000110
,
00000020
00000230
00002300
00003200
,
00000300
00001100
00100000
00101000
,
00200000
00320000
00032000
00003200
,
00100300
00101000
00100000
00001100
,
00000200
00020300
00032000
00203000
,
00301000
00011000
01001000
01010000
,
00200000
00320000
00032000
02003000
,
03010000
00011000
00110000
01100000
,
02000000
03200000
00320000
00230000
,
20300000
00000000
32000000
00000000
,
03200000
00000000
00320000
00000000
,
01030000
01000000
00100000
00100000
,
01000000
00000000
00100000
01000000
00100000
00000000
01100000
00000000
,
02000000
00100000
00010000
03100000
,
00020000
01000000
00100000
00031000
,
00200000
00010000
00001000
01300000
,
00002000
00010000
01000000
00103000
,
00002000
00100000
00000100
00103000
,
00000200
00001000
00100000
00010300
,
00200000
00000100
00010000
00301000
,
00200200
00000000
00000000
00000000
00000000
00300300
00000000
00000000
,
00000020
00000100
00001000
00000130
,
00002000
00000010
00000100
00013000
,
00000200
00001000
00010000
00000310
,
00020000
00001000
00000010
00030100
,
00000200
00000001
00001000
00000301
,
00002000
00000100
00000001
00003010
,
00000002
00001000
00000010
00000103
,
00002002
00000000
00000000
00000000
00000000
00003003
00000000
00000000
,
00020000
00032000
00003200
00000320
,
00020030
00032000
00003200
00000310
,
00000020
00000230
00002300
00023000
,
00030020
00000230
00002300
00013000
,
00001000
00000000
00020000
00000000
00000000
00230000
00000000
00000000
,
00320000
00000000
00000000
00030200
00000000
00000000
00001300
00000000
,
00000200
00002300
00023000
00130000
,
00200200
00000000
00000000
00300300
,
02000000
03020000
00230000
00302000
,
02003000
03020000
00230000
00301000
,
00002000
00203000
00320000
02030000
,
03002000
00203000
00320000
01030000
,
02000000
00000000
03200000
00000000
00000000
20300000
00000000
00000000
,
32000000
00000000
00000000
03200000
00000000
00000000
00310000
00000000
,
10000000
10000000
00010000
00010000
,
10000000
00000000
00010000
10000000
00010000
00000000
10010000
00000000
,
00220000
00000000
00000000
00000000
,
00000000
00000000
00000000
00000000
,
00000000
00000000
00000000
00000000
,
00330000
00000000
00000000
00000000
;

//---------------dance-single - ----------------
#NOTES:
     dance-single:
     :
     Beginner:
     1:
     0.120,0.206,0.010,0.010,0.000,85.000,1.000,1.000,0.000,0.000:
0100
0000
0000
0000
,
0100
0000
0000
0000
,
0010
0000
0000
0000
,
0010
0000
0000
0000
,
0100
0000
0000
0000
,
0100
0000
0000
0000
,
0010
0000
0000
0000
,
0010
0000
0000
0000
,
1000
0000
0000
0000
,
1000
0000
0000
0000
,
0001
0000
0000
0000
,
0001
0000
0000
0000
,
1000
0000
0000
0000
,
1000
0000
0000
0000
,
0001
0000
0000
0000
,
0000
0000
0000
0000
,
0100
0000
0000
0000
,
1000
0000
0000
0000
,
0100
0000
0000
0000
,
0001
0000
0000
0000
,
0100
0000
0000
0000
,
1000
0000
0000
0000
,
0010
0000
0000
0000
,
0100
0000
0000
0000
,
0010
0000
0000
0000
,
1000
0000
0000
0000
,
0100
0000
0000
0000
,
0001
0000
0000
0000
,
0010
0000
0000
0000
,
0100
0000
0000
0000
,
0010
0000
0000
0000
,
1000
0000
0000
0000
,
0100
0000
0000
0000
,
1000
0000
0000
0000
,
0001
0000
0000
0000
,
0100
0000
0000
0000
,
0010
0000
0000
0000
,
0100
0000
0000
0000
,
0001
0000
0000
0000
,
1000
0000
0000
0000
,
0010
0000
0000
0000
,
0100
0000
0000
0000
,
0010
0000
0000
0000
,
1000
0000
0000
0000
,
0100
0000
0000
0000
,
1000
0000
0000
0000
,
0001
0000
0000
0000
,
0010
0000
0000
0000
,
1000
0000
0000
0000
,
0100
0000
0000
0000
,
0010
0000
0000
0000
,
1001
0000
0000
0000
,
1000
0000
0100
0000
,
0010
0000
0001
0000
,
1000
0000
0010
0000
,
0100
0000
0001
0000
,
0010
0000
0100
0000
,
0010
0000
1000
0000
,
0100
0000
1000
0000
,
0001
0000
0010
0000
,
0100
0000
0010
0000
,
1000
0000
0001
0000
,
0010
0000
0100
0000
,
0010
0000
1000
0000
,
0001
0000
0010
0000
,
0100
0000
0010
0000
,
1000
0000
0100
0000
,
0001
0000
0100
0100
,
0200
0000
0000
0000
,
0000
0000
0000
0000
,
0000
0000
0000
0000
,
0300
0000
0000
0000
;
